+ yazzidogspawscatclaws.com »  :::: Bollywood Zone » Regional Movies » Bengali Movies
|- Ami Je Ke Tomar 2017 [Bengali] 1080p Untouched WEB-DL x264 AAC Esub- Hon3y [S_N]


Mastercard 10% Off

Ami Je Ke Tomar 2017 [Bengali] 1080p Untouched WEB-DL x264 AAC Esub- Hon3y [S_N]

0 Members and 1 Guest are viewing this topic.

September 05, 2017, 04:47:10 PM
  • Semi Newbie
  • **
  • Topic Author
  • Thank You: 26
  • Reputation: 22
  • Activity:
    0%
  • Country: de
  • Posts: 44
  • Topics: 34
  • Join Date: Jun 2017
  • ShareSpark Member

Ami Je Ke Tomar 2017 [Bengali] 1080p Untouched WEB-DL x264 AAC Esub- Hon3y [S_N]



  :info:





Ami Je Ke Tomar 2017 [Bengali] 1080p Untouched WEB-DL x264 AAC Esub- Hon3y


IMDB : 



Director:  Rabi Kinagi


Cast

Stars:  Sayantika Banerjee, Ankush Hazra, Nusrat Jahan |

PLOT:

Ankush plays in this film a young millionaire with a heart of gold. He successfully runs in the business of resorts. His life is anchored by his best friend and business associate, Prachi. Life is all about fun and work and girls, till his car bumps into Esha's cycle. Aditya is instantly enamored by the pretty and innocent girl who seems to have no interest in the flirty, rich bachelor. He ends up giving her a job in his resort even though she can't work in the second shift. As times goes by, Aditya starts sharing his deepest thoughts with Esha. She sees the simple, lovable man behind the successful persona who loves the food made by his aunt. Unwittingly, she loses her heart to this flirty man who confesses to be commitment phobic. These three characters become the best of buddies. Prachi sees the growing chemistry between these two and she keeps her love for Aditya hidden inside her. Turbulence occurs when Prachi's past crops in and misleads their lives in different direction.






Format                      : Matroska
Format version              : Version 4 / Version 2
File size                   : 5.40 GiB
Duration                    : 2 h 9 min
Overall bit rate            : 5 970 kb/s
Movie name                  : Ami Je Ke Tomar / 2017- [email protected] Hon3y


Video
ID                          : 1
Format                      : AVC
Format/Info                 : Advanced Video Codec
Format profile              : [email protected]
Format settings, CABAC      : Yes
Format settings, ReFrames   : 1 frame
Format settings, GOP        : M=1, N=25
Codec ID                    : V_MPEG4/ISO/AVC
Duration                    : 2 h 9 min
Bit rate mode               : Constant
Bit rate                    : 6 000 kb/s
Width                       : 1 920 pixels
Height                      : 1 080 pixels
Display aspect ratio        : 16:9
Frame rate mode             : Constant
Frame rate                  : 25.000 FPS


Audio
ID                          : 2
Format                      : AAC
Format/Info                 : Advanced Audio Codec
Format profile              : LC
Codec ID                    : A_AAC
Duration                    : 2 h 9 min
Bit rate                    : 125 kb/s
Channel(s)                  : 2 channels
Channel positions           : Front: L R
Sampling rate               : 48.0 kHz
Frame rate                  : 46.875 FPS (1024 spf)
Compression mode            : Lossy
Stream size                 : 116 MiB (2%)
Language                    : Bengali
Default                     : Yes
Forced                      : No

Text
ID                          : 3
Format                      : UTF-8
Codec ID                    : S_TEXT/UTF8
Codec ID/Info               : UTF-8 Plain Text
Duration                    : 2 h 8 min
Bit rate                    : 59 b/s
Count of elements           : 1489
Stream size                 : 55.5 KiB (0%)
Language                    : English
Default                     : Yes
Forced                      : No


:ss:















:download:










Share this topic on FacebookShare this topic on GoogleShare this topic on MySpaceShare this topic on TwitterShare this topic on Yahoo

« Last Edit: September 05, 2017, 05:03:45 PM by s543210 »


Thanks given by:


September 05, 2017, 10:02:45 PM
Reply #1
  • Elite Forces
  • ****
  • Thank You: 231
  • Reputation: 99
  • Activity:
    8.8%
  • Country: sa
  • Posts: 1150
  • Topics: 116
  • Join Date: Jan 2017
  • ShareSpark Member

October 17, 2018, 11:42:56 AM
Reply #2
  • V.I.P.
  • Elite Member
  • ***
  • Thank You: 188
  • Reputation: 49
  • Activity:
    1.6%
  • Country: sa
  • Posts: 498
  • Topics: 469
  • Join Date: Jun 2014
  • ShareSpark Member

Tags:
 

Related Topics

  Subject / Started by Replies Last post
1 Replies
1050 Views
Last post May 10, 2017, 06:33:44 PM
by Vagabond
0 Replies
1150 Views
Last post May 11, 2017, 08:54:36 AM
by Optimiser
0 Replies
815 Views
Last post August 14, 2017, 04:24:05 PM
by Abhisona
1 Replies
689 Views
Last post October 09, 2017, 04:30:00 PM
by Vagabond
0 Replies
1144 Views
Last post January 07, 2018, 07:01:14 PM
by UnikAaYush




Back to top
SitemapAriana Grande - breathin (The Ellen Show Performance) | GG 300g/0,01g MS-B Feinwaage Goldwaage Digital-waage Taschenwaage | Ogliastra