+ yazzidogspawscatclaws.com »  :::: Bollywood Zone » Regional Movies » Bengali Movies
|- Taan (2014) 720p WEBHD Untouched - DTOne


10% SBI and 10% Discount

Taan (2014) 720p WEBHD Untouched - DTOne

0 Members and 1 Guest are viewing this topic.

April 22, 2018, 01:07:40 AM
  • Elite Forces
  • ****
  • Topic Author
  • Thank You: 231
  • Reputation: 99
  • Activity:
    8.8%
  • Country: sa
  • Posts: 1150
  • Topics: 116
  • Join Date: Jan 2017
  • ShareSpark Member
Taan (2014) 720p WEBHD Untouched - DTOne




General

Complete name  : Taan (2014) 720p WEBHD Untouched - DTOne.mp4
Format  : MPEG-4
Format profile : Base Media
Codec ID  : isom (isom/iso2/avc1/mp41)
File size  : 1.17 GiB
Duration : 1 h 46 min
Overall bit rate : 1 584 kb/s
Writing application : Lavf57.65.100

Video

ID   : 1
Format   : AVC
Format/Info : Advanced Video Codec
Format profile  : [email protected]
Format settings : CABAC / 8 Ref Frames
Format settings, CABAC : Yes
Format settings, RefFrames : 8 frames
Codec ID : avc1
Codec ID/Info  : Advanced Video Coding
Duration  : 1 h 46 min
Bit rate  : 1 448 kb/s
Width : 1 280 pixels
Height  : 720 pixels
Display aspect ratio : 16:9
Frame rate mode  : Variable
Frame rate  : 25.000 FPS
Minimum frame rate : 24.390 FPS
Maximum frame rate  : 25.641 FPS
Color space  : YUV
Chroma subsampling : 4:2:0
Bit depth : 8 bits
Scan type : Progressive
Bits/(Pixel*Frame)  : 0.063
Stream size  : 1.07 GiB (91%)
Writing library  : Lyrical Labs Premium Video Encoder 2.0

Audio

ID : 2
Format  : AAC
Format/Info : Advanced Audio Codec
Format profile  : LC
Codec ID  : mp4a-40-2
Duration  : 1 h 46 min
Duration_LastFrame  : 8 ms
Bit rate mode : Constant
Bit rate   : 132 kb/s
Channel(s) : 2 channels
Channel positions : Front: L R
Sampling rate : 48.0 kHz
Frame rate  : 46.875 FPS (1024 SPF)
Compression mode  : Lossy
Stream size  : 98.7 MiB (8%)
Language : English
Default : Yes
Alternate group :1


Quote

Share this topic on FacebookShare this topic on GoogleShare this topic on MySpaceShare this topic on TwitterShare this topic on Yahoo



Thanks given by:


Tags:
 

Related Topics





Back to top
SitemapBaby Steps 221 | 4K Video Downloader 4 4 11 2412 X-NET | Clara Lee