+ yazzidogspawscatclaws.com »  :::: Bollywood Zone » Regional Movies » Bengali Movies
|- Cholochitro Circus (2017) 576p WEBHD Untouched - DTOne


100% DTH Offer

Cholochitro Circus (2017) 576p WEBHD Untouched - DTOne

0 Members and 1 Guest are viewing this topic.

July 28, 2018, 10:47:05 PM
  • Elite Forces
  • ****
  • Topic Author
  • Thank You: 231
  • Reputation: 99
  • Activity:
    8.6%
  • Country: sa
  • Posts: 1151
  • Topics: 116
  • Join Date: Jan 2017
  • ShareSpark Member
Cholochitro Circus (2017) 576p WEBHD Untouched - DTOne



General
Complete name  : Cholochitro Circus (2017) 576p WEBHD Untouched - DTOne.mp4
Format   : MPEG-4
Format profile  : Base Media
Codec ID  : isom (isom/iso2/avc1/mp41)
File size  : 1.70 GiB
Duration : 2 h 2 min
Overall bit rate  : 1 990 kb/s
Writing application  : Lavf57.72.101

Video
ID   : 1
Format   : AVC
Format/Info : Advanced Video Codec
Format profile  : [email protected]
Format settings  : CABAC / 4 Ref Frames
Format settings, CABAC  : Yes
Format settings, RefFrames   : 4 frames
Format settings, GOP : M=4, N=90
Codec ID  : avc1
Codec ID/Info  : Advanced Video Coding
Duration  : 2 h 2 min
Bit rate  : 1 872 kb/s
Width  : 1 024 pixels
Height  : 576 pixels
Display aspect ratio  : 16:9
Frame rate mode  : Constant
Frame rate  : 24.000 FPS
Color space  : YUV
Chroma subsampling  : 4:2:0
Bit depth : 8 bits
Scan type   : Progressive
Bits/(Pixel*Frame)  : 0.132
Stream size  : 1.58 GiB (93%)
Writing library  : x264 core 148
Color range  : Limited
Color primaries  : BT.709
Transfer characteristics  : BT.709
Matrix coefficients   : BT.709

Audio
ID  : 2
Format  : AAC
Format/Info   : Advanced Audio Codec
Format profile   : LC
Codec ID  : mp4a-40-2
Duration  : 2 h 2 min
Bit rate mode  : Constant
Bit rate  : 126 kb/s
Channel(s)  : 2 channels
Channel positions   : Front: L R
Sampling rate  : 44.1 kHz
Frame rate : 43.066 FPS (1024 SPF)
Compression mode : Lossy
Stream size   : 110 MiB (6%)
Language  : English
Default   : Yes
Alternate group  : 1







Share this topic on FacebookShare this topic on GoogleShare this topic on MySpaceShare this topic on TwitterShare this topic on Yahoo




October 05, 2018, 12:50:07 PM
Reply #1
  • Newbie
  • **
  • Thank You: 0
  • Reputation: 0
  • Activity:
    0.2%
  • Country: in
  • Posts: 4
  • Topics: 0
  • Join Date: Jun 2014
  • ShareSpark Member

Tags:
 

Related Topics





Back to top
SitemapAlpha (2018) | Yin-chi Wong | Lucha Underground