+ yazzidogspawscatclaws.com »  :::: Bollywood Zone » Regional Movies » Bengali Movies
|- Shotru (2011) Bengali Movie - 2CD - HDTVRip[x264 - AC3(5.1Ch)]


TV and Appliances

Shotru (2011) Bengali Movie - 2CD - HDTVRip[x264 - AC3(5.1Ch)]

0 Members and 1 Guest are viewing this topic.

October 09, 2018, 12:51:54 PM
  • Semi Newbie
  • **
  • Topic Author
  • Thank You: 0
  • Reputation: 0
  • Activity:
    5.4%
  • Country: bd
  • Posts: 27
  • Topics: 27
  • Join Date: Oct 2018
  • ShareSpark Member
      Shotru (2011) Bengali Movie - 2CD -
HDTVRip[x264 - AC3(5.1Ch)]   
 







Code: [Select]
General
Format                                   : Matroska
Format version                           : Version 2
File size                                : 1.40 GiB
Duration                                 : 3 h 0 min

Video
ID                                       : 1
Format                                   : AVC
Format/Info                              : Advanced Video Codec
Format profile                           : [email protected]
Format settings                          : CABAC / 4 Ref Frames
Format settings, CABAC                   : Yes
Format settings, RefFrames               : 4 frames
Codec ID                                 : V_MPEG4/ISO/AVC
Duration                                 : 3 h 0 min
Bit rate                                 : 919 kb/s
Width                                    : 720 pixels
Height                                   : 304 pixels
Display aspect ratio                     : 2.35:1
Frame rate mode                          : Constant
Frame rate                               : 25.000 FPS
Color space                              : YUV
Chroma subsampling                       : 4:2:0
Bit depth                                : 8 bits
Scan type                                : Progressive
Bits/(Pixel*Frame)                       : 0.168
Stream size                              : 1.16 GiB (83%)

Audio
ID                                       : 2
Format                                   : AC-3
Format/Info                              : Audio Coding 3
Commercial name                          : Dolby Digital
Codec ID                                 : A_AC3
Duration                                 : 3 h 0 min
Bit rate mode                            : Constant
Bit rate                                 : 192 kb/s
Channel(s)                               : 6 channels
Channel layout                           : L R C LFE Ls Rs
Sampling rate                            : 48.0 kHz
Stream size                              : 248 MiB (17%)


  Thumbnail   






OR

OR

Share this topic on FacebookShare this topic on GoogleShare this topic on MySpaceShare this topic on TwitterShare this topic on Yahoo




Tags:
 

Related Topics

  Subject / Started by Replies Last post
0 Replies
146 Views
Last post October 07, 2018, 10:22:56 PM
by BUNGILI
0 Replies
142 Views
Last post October 09, 2018, 01:03:15 PM
by BUNGILI
0 Replies
142 Views
Last post October 11, 2018, 07:08:36 PM
by BUNGILI
0 Replies
13 Views
Last post 8 hours ago
by BUNGILI
0 Replies
28 Views
Last post 7 hours ago
by BUNGILI




Back to top
SitemapMy Little Pony | Watch movie | MS Windows 10 Professional Win 10 Pro OEM 1/2/3/4/5 PC Produkt key per email